<?xml version="1.0" standalone="no"?>
<!DOCTYPE svg PUBLIC "-//W3C//DTD SVG 1.1//EN" "http://www.w3.org/Graphics/SVG/1.1/DTD/svg11.dtd" >
<svg xmlns="http://www.w3.org/2000/svg">
<metadata></metadata>
<defs>
<font id="ramseybook" horiz-adv-x="1261" >
<font-face units-per-em="2048" ascent="1577" descent="-471" />
<missing-glyph horiz-adv-x="466" />
<glyph horiz-adv-x="0" />
<glyph horiz-adv-x="682" />
<glyph horiz-adv-x="0" />
<glyph horiz-adv-x="0" />
<glyph unicode="&#xd;" horiz-adv-x="466" />
<glyph unicode=" "  horiz-adv-x="466" />
<glyph unicode="&#x09;" horiz-adv-x="466" />
<glyph unicode="&#xa0;" horiz-adv-x="466" />
<glyph unicode="!" horiz-adv-x="489" d="M111 0v236h268v-236h-268zM115 973v565h262v-565l-55 -545h-152z" />
<glyph unicode="&#x22;" horiz-adv-x="757" d="M90 1102v436h246l-43 -436h-203zM442 1102v436h246l-43 -436h-203z" />
<glyph unicode="#" horiz-adv-x="1337" d="M53 403v185h258v358h-258v184h258v396h197v-396h319v396h197v-396h258v-184h-258v-358h258v-185h-258v-403h-197v403h-319v-403h-197v403h-258zM508 588h319v358h-319v-358z" />
<glyph unicode="$" horiz-adv-x="1230" d="M127 334v127l279 20v-164q0 -19 6 -28.5t12.5 -11t19.5 -1.5h338q11 0 16.5 0.5t12.5 4.5t9.5 12.5t2.5 23.5v326q0 14 -2.5 22.5t-9.5 12t-12.5 4t-16.5 0.5h-415q-137 0 -187.5 50t-50.5 186v284q0 137 50.5 188.5t187.5 51.5h165v112h162v-112h168q137 0 187.5 -51.5 t50.5 -188.5v-137l-277 -18v174q0 14 -2.5 22.5t-9.5 12t-12.5 4t-16.5 0.5h-336q-14 0 -20.5 -1.5t-12 -10t-5.5 -27.5v-316q0 -19 5.5 -27.5t12 -10t20.5 -1.5h418q138 0 188 -49.5t50 -185.5v-297q0 -136 -51 -187t-187 -51h-172v-112h-160v112h-167q-137 0 -187.5 51 t-50.5 187z" />
<glyph unicode="%" horiz-adv-x="1583" d="M121 1047v315q0 176 174 176h295q172 0 172 -176v-315q0 -86 -43.5 -131.5t-128.5 -45.5h-295q-86 0 -130 45t-44 132zM326 1069q0 -20 7.5 -25.5t22.5 -5.5h172q15 0 23 5.5t8 25.5v272q0 33 -31 33h-172q-14 0 -22 -6.5t-8 -26.5v-272zM332 -20l833 1597h92l-833 -1597 h-92zM819 174v315q0 177 174 177h295q174 0 174 -177v-315q0 -174 -174 -174h-295q-174 0 -174 174zM1024 197q0 -33 31 -33h172q14 0 22 6.5t8 26.5v272q0 31 -30 31h-172q-31 0 -31 -31v-272z" />
<glyph unicode="&#x26;" horiz-adv-x="1638" d="M141 231v342q0 113 43.5 168.5t141.5 67.5q-98 14 -141.5 69t-43.5 169v260q0 136 50.5 186.5t185.5 50.5h485q138 0 189 -50.5t51 -186.5v-187l-256 -20v194q0 14 -2.5 22.5t-9.5 12t-12.5 4t-16.5 0.5h-346q-15 0 -21.5 -1.5t-12 -10.5t-5.5 -27v-325q0 -36 20.5 -52 t48.5 -16h185v-184h-185q-28 0 -48.5 -15t-20.5 -51v-407q0 -18 5.5 -27t12 -10.5t21.5 -1.5h346q11 0 16.5 0.5t12.5 4t9.5 12t2.5 22.5v315q0 134 57.5 185t196.5 51h215q15 0 21.5 1.5t12 11t5.5 28.5v135q0 28 -9 34.5t-30 6.5h-107l56 196h114q123 0 173.5 -52.5 t50.5 -168.5v-168q0 -127 -50 -181t-174 -54h-215q-15 0 -21.5 -1.5t-12 -10.5t-5.5 -27v-314q0 -137 -50 -187t-187 -50h-510q-135 0 -185.5 50.5t-50.5 186.5z" />
<glyph unicode="'" horiz-adv-x="405" d="M90 1102v436h246l-43 -436h-203z" />
<glyph unicode="(" horiz-adv-x="593" d="M131 -94v1392q0 138 50 189t188 51h153v-164h-98q-11 0 -16.5 -0.5t-12.5 -4.5t-9.5 -12.5t-2.5 -23.5v-1460q0 -28 9.5 -34.5t31.5 -6.5h98v-164h-153q-138 0 -188 50.5t-50 187.5z" />
<glyph unicode=")" horiz-adv-x="593" d="M72 -168h98q11 0 16.5 0.5t12.5 4.5t9.5 12.5t2.5 23.5v1460q0 28 -9.5 34.5t-31.5 6.5h-98v164h153q138 0 188 -51t50 -189v-1392q0 -136 -50.5 -187t-187.5 -51h-153v164z" />
<glyph unicode="*" horiz-adv-x="890" d="M109 1284l53 141l209 -86v238h145v-238l215 86l51 -141l-219 -78l146 -202l-121 -89l-144 213l-141 -213l-121 89l144 202z" />
<glyph unicode="+" horiz-adv-x="1187" d="M72 682v188h428v459h188v-459h428v-188h-428v-463h-188v463h-428z" />
<glyph unicode="," horiz-adv-x="440" d="M94 0v236h252v-230l-168 -182h-76l95 176h-103z" />
<glyph unicode="-" horiz-adv-x="835" d="M90 676v201h655v-201h-655z" />
<glyph unicode="." horiz-adv-x="423" d="M94 0v236h236v-236h-236z" />
<glyph unicode="/" horiz-adv-x="763" d="M29 0l479 1538h227l-479 -1538h-227z" />
<glyph unicode="0" horiz-adv-x="1259" d="M141 229v1080q0 135 50 185t188 50h502q137 0 187 -50t50 -185v-1080q0 -137 -50 -187t-187 -50h-502q-137 0 -187.5 50.5t-50.5 186.5zM420 242q0 -14 3 -22.5t9.5 -12t11.5 -4t15 -0.5h340q11 0 16.5 0.5t12.5 4t9.5 12t2.5 22.5v1052q0 14 -2.5 22.5t-9.5 12t-12.5 4 t-16.5 0.5h-340q-10 0 -15 -0.5t-11.5 -4t-9.5 -12t-3 -22.5v-1052z" />
<glyph unicode="1" horiz-adv-x="559" d="M141 0v1526l279 24v-1550h-279z" />
<glyph unicode="2" horiz-adv-x="1269" d="M141 0v580q0 137 50 187t188 50h432q15 0 21.5 1.5t12 10.5t5.5 27v438q0 18 -5.5 27t-12 10.5t-21.5 1.5h-352q-15 0 -21.5 -1.5t-12 -10.5t-5.5 -27v-174l-279 21v168q0 135 50 185t188 50h512q137 0 187 -50t50 -185v-428q0 -139 -51.5 -195.5t-185.5 -56.5h-432 q-15 0 -21.5 -1.5t-12 -10.5t-5.5 -27v-379h708v-211h-987z" />
<glyph unicode="3" horiz-adv-x="1255" d="M123 231v172l278 19v-178q0 -18 5.5 -27t12 -10.5t21.5 -1.5h355q15 0 21.5 1.5t12 10.5t5.5 27v415q0 18 -5.5 27t-12 10.5t-21.5 1.5h-400v174l412 455h-655v211h960v-195l-436 -471h203q133 0 183 -51.5t50 -181.5v-408q0 -136 -50.5 -186.5t-187.5 -50.5h-512 q-137 0 -188 50.5t-51 186.5z" />
<glyph unicode="4" horiz-adv-x="1251" d="M96 397v150l279 991h266l-266 -979h405v979h279v-979h143v-162h-143v-397h-279v397h-684z" />
<glyph unicode="5" horiz-adv-x="1269" d="M141 231v166l277 21v-174q0 -14 3 -22.5t9.5 -12t11.5 -4t15 -0.5h354q10 0 15 0.5t11.5 4t9.5 12t3 22.5v465q0 15 -3 24t-9.5 12t-11.5 4t-15 1h-365q-26 0 -26 -27v-35h-279v850h979v-211h-704v-438q34 51 143 51h334q133 0 184 -57.5t51 -196.5v-455q0 -137 -50 -187 t-187 -50h-514q-136 0 -186 50t-50 187z" />
<glyph unicode="6" horiz-adv-x="1269" d="M141 231v1080q0 135 50.5 185t185.5 50h514q136 0 186.5 -50t50.5 -185v-164l-278 -19v168q0 14 -3 22.5t-9.5 12t-11.5 4t-15 0.5h-356q-10 0 -15 -0.5t-11.5 -4t-9.5 -12t-3 -22.5v-448q15 17 53.5 31t85.5 14h344q129 0 179 -58.5t50 -195.5v-408q0 -137 -50 -187 t-187 -50h-514q-135 0 -185.5 50.5t-50.5 186.5zM420 244q0 -14 3 -22.5t9.5 -12t11.5 -4t15 -0.5h352q10 0 15 0.5t11.5 4t9.5 12t3 22.5v430q0 14 -3 22.5t-9.5 12t-11.5 4t-15 0.5h-352q-13 0 -19.5 -1t-13 -10t-6.5 -26v-432z" />
<glyph unicode="7" horiz-adv-x="1036" d="M106 1327v211h852v-211l-487 -1327h-283l494 1327h-576z" />
<glyph unicode="8" horiz-adv-x="1269" d="M141 231v301q0 113 43.5 168.5t141.5 67.5q-99 14 -142 68.5t-43 167.5v307q0 135 50.5 185t187.5 50h512q136 0 186.5 -50t50.5 -185v-303q0 -115 -43 -170.5t-143 -69.5q100 -12 143 -67t43 -169v-301q0 -137 -50 -187t-187 -50h-512q-137 0 -187.5 50.5t-50.5 186.5z M420 236q0 -14 3 -22.5t9.5 -12t11.5 -4t15 -0.5h352q15 0 21.5 1.5t12 10.5t5.5 27v376q0 35 -21 50.5t-49 15.5h-291q-28 0 -48.5 -15.5t-20.5 -50.5v-376zM420 928q0 -36 20.5 -52t48.5 -16h291q28 0 49 16t21 52v377q0 14 -2.5 22.5t-9 11.5t-11 3.5t-16.5 0.5h-352 q-14 0 -20 -1t-12.5 -10t-6.5 -27v-377z" />
<glyph unicode="9" horiz-adv-x="1269" d="M141 231v160l279 19v-166q0 -18 5.5 -27t12 -10.5t21.5 -1.5h354q15 0 21.5 1.5t12 10.5t5.5 27v448q-16 -17 -53 -31t-84 -14h-344q-129 0 -179.5 57.5t-50.5 194.5v412q0 135 50.5 185t187.5 50h512q136 0 186.5 -50t50.5 -185v-1080q0 -137 -50 -187t-187 -50h-512 q-137 0 -187.5 50.5t-50.5 186.5zM420 866q0 -18 5.5 -27t12 -10.5t21.5 -1.5h352q13 0 19.5 1t13 9.5t6.5 24.5v434q0 14 -3 22.5t-9.5 12t-11.5 4t-15 0.5h-352q-15 0 -21.5 -1.5t-12 -10.5t-5.5 -27v-430z" />
<glyph unicode=":" horiz-adv-x="440" d="M94 0v236h252v-236h-252zM94 838v235h252v-235h-252z" />
<glyph unicode=";" horiz-adv-x="440" d="M94 0v236h252v-230l-168 -182h-76l95 176h-103zM94 838v235h252v-235h-252z" />
<glyph unicode="&#x3c;" horiz-adv-x="1005" d="M63 631v291l822 421v-235l-652 -334l652 -330v-235z" />
<glyph unicode="=" horiz-adv-x="917" d="M90 469v190h737v-190h-737zM90 893v190h737v-190h-737z" />
<glyph unicode="&#x3e;" horiz-adv-x="1005" d="M63 209v235l650 330l-650 334v235l822 -421v-291z" />
<glyph unicode="?" horiz-adv-x="1093" d="M72 1145v92q0 64 3 106t12 79.5t25 58.5t43 37t64 22t90 6h424q135 0 185.5 -53t50.5 -190v-390q0 -137 -51 -191t-185 -54h-115q-11 0 -16.5 -0.5t-12 -4t-9 -12t-2.5 -22.5v-203h-244l2 190q2 137 52 190.5t185 53.5h97q10 0 15 0.5t11.5 4t9.5 12t3 22.5v395 q0 15 -3 24t-9.5 12t-11.5 4t-15 1h-297q-15 0 -21.5 -1.5t-12 -11t-5.5 -28.5v-178zM322 0v236h268v-236h-268z" />
<glyph unicode="@" horiz-adv-x="1654" d="M121 199v1144q0 110 42.5 153.5t153.5 43.5h1018q113 0 156 -43.5t43 -153.5v-794q0 -87 -35 -121.5t-123 -34.5h-205q-93 0 -131.5 38t-38.5 134v379q0 19 -5.5 27.5t-12 10t-20.5 1.5h-267q-15 0 -21.5 -1.5t-12 -10.5t-5.5 -27v-350q0 -18 5.5 -27t12 -10.5t21.5 -1.5 h303l-81 -162h-277q-88 0 -123 34.5t-35 121.5v440q0 87 35 121.5t123 34.5h379q88 0 122 -34t34 -122v-411q0 -19 5.5 -27.5t12 -10t20.5 -1.5h123q15 0 21.5 1.5t12 10.5t5.5 27v735q0 29 -6 46t-20 24t-24.5 8.5t-31.5 1.5h-936q-20 0 -30.5 -1.5t-23.5 -8.5t-19 -24 t-6 -46v-1086q0 -29 6 -46t19 -24t23.5 -8.5t30.5 -1.5h641l-65 -147h-617q-111 0 -153.5 44.5t-42.5 154.5z" />
<glyph unicode="A" d="M37 0l360 1538h465l363 -1538h-289l-68 297h-477l-65 -297h-289zM422 467h418l-211 899z" />
<glyph unicode="B" d="M143 0v1538h740q135 0 185 -50.5t50 -187.5v-278q0 -114 -43.5 -170t-142.5 -68q100 -14 143 -68.5t43 -168.5v-309q0 -135 -50 -186.5t-185 -51.5h-740zM422 207h379q15 0 21.5 1.5t12 10.5t5.5 27v383q0 65 -70 65h-348v-487zM422 874h348q28 0 49 16t21 52v350 q0 18 -5.5 27t-12 10.5t-21.5 1.5h-379v-457z" />
<glyph unicode="C" horiz-adv-x="1265" d="M143 240v1063q0 136 51.5 189.5t186.5 53.5h512q136 0 184.5 -52.5t50.5 -190.5l2 -195l-278 -21v207q0 15 -3 24t-9.5 12t-11.5 4t-15 1h-352q-10 0 -15 -1t-11.5 -4t-9.5 -12t-3 -24v-1050q0 -15 3 -24t9.5 -12t11.5 -4t15 -1h352q10 0 15 1t11.5 4t9.5 12t3 24v217 l278 -19l-2 -202q-2 -139 -51.5 -192.5t-183.5 -53.5h-512q-134 0 -186 54.5t-52 191.5z" />
<glyph unicode="D" horiz-adv-x="1275" d="M143 0v1538h725q150 0 208.5 -58t58.5 -208v-1006q0 -148 -59 -207t-208 -59h-725zM422 211h387q25 0 37 9.5t12 37.5v1022q0 28 -12 37.5t-37 9.5h-387v-1116z" />
<glyph unicode="E" horiz-adv-x="1091" d="M143 0v1538h820v-211h-541v-1116h545v-211h-824zM424 879h520v-211h-463z" />
<glyph unicode="F" horiz-adv-x="1028" d="M143 0v1538h781v-211h-502v-1327h-279zM424 852h487v-211h-430z" />
<glyph unicode="G" horiz-adv-x="1277" d="M143 246v1054q0 136 51.5 190t186.5 54h518q135 0 185.5 -53.5t50.5 -190.5v-176l-279 -20v190q0 14 -3 22.5t-9.5 12t-11.5 4t-15 0.5h-356q-11 0 -16.5 -0.5t-12.5 -4t-9.5 -12t-2.5 -22.5v-1044q0 -14 2.5 -22.5t9.5 -12t12.5 -4t16.5 -0.5h393l-61 -211h-412 q-134 0 -186 54.5t-52 191.5zM674 625v180h461v-805h-279v625h-182z" />
<glyph unicode="H" horiz-adv-x="1302" d="M143 0v1538h279v-657h459v657h278v-1538h-278v672h-459v-672h-279z" />
<glyph unicode="I" horiz-adv-x="565" d="M143 0v1538h279v-1538h-279z" />
<glyph unicode="J" horiz-adv-x="1134" d="M63 240v209l263 20v-225q0 -18 5.5 -27t12 -10.5t21.5 -1.5h309q15 0 21.5 1.5t12 10.5t5.5 27v1294h278v-1298q0 -138 -51 -192t-188 -54h-453q-134 0 -185 54t-51 192z" />
<glyph unicode="K" horiz-adv-x="1224" d="M143 0v1538h279v-1538h-279zM422 788l467 750h303l-465 -750l494 -788h-306z" />
<glyph unicode="L" horiz-adv-x="972" d="M143 0v1538h279v-1327h516v-211h-795z" />
<glyph unicode="M" horiz-adv-x="1835" d="M143 0v1538h478l297 -1364l296 1364h478v-1538h-269v1346l-313 -1346h-387l-311 1346v-1346h-269z" />
<glyph unicode="N" horiz-adv-x="1474" d="M143 0v1538h459l455 -1300v1300h274v-1538h-457l-456 1300v-1300h-275z" />
<glyph unicode="O" horiz-adv-x="1318" d="M143 240v1060q0 136 51.5 190t186.5 54h559q135 0 185.5 -53.5t50.5 -190.5v-1060q0 -138 -51 -192t-185 -54h-559q-134 0 -186 54.5t-52 191.5zM422 244q0 -19 6 -27.5t12.5 -10t22.5 -1.5h395q15 0 21.5 1.5t12 10.5t5.5 27v1050q0 18 -5.5 27t-12 10.5t-21.5 1.5h-395 q-11 0 -16.5 -0.5t-12.5 -4t-9.5 -12t-2.5 -22.5v-1050z" />
<glyph unicode="P" horiz-adv-x="1208" d="M143 0v1538h729q135 0 185.5 -53.5t50.5 -190.5v-491q0 -138 -51 -192t-185 -54h-387l-61 211h367q14 0 20.5 1.5t12 10t5.5 27.5v481q0 19 -5.5 27.5t-12 10t-20.5 1.5h-369v-1327h-279z" />
<glyph unicode="Q" horiz-adv-x="1323" d="M143 240v1060q0 136 51.5 190t186.5 54h559q137 0 188.5 -54t51.5 -190v-1060q0 -138 -51.5 -192t-188.5 -54h-156l205 -53l107 -291h-265l-114 344h-336q-134 0 -186 54.5t-52 191.5zM422 244q0 -14 2.5 -22.5t9.5 -12t12.5 -4t16.5 -0.5h397q15 0 21.5 1.5t12 10.5 t5.5 27v1050q0 18 -5.5 27t-12 10.5t-21.5 1.5h-397q-11 0 -16.5 -0.5t-12.5 -4t-9.5 -12t-2.5 -22.5v-1050z" />
<glyph unicode="R" horiz-adv-x="1259" d="M143 0v1538h740q136 0 186.5 -50.5t50.5 -187.5v-395q0 -135 -55 -190.5t-193 -55.5h-102l207 -59l217 -600h-283l-221 647h-268v-647h-279zM422 823h383q10 0 15 0.5t11.5 4t9.5 12t3 22.5v426q0 14 -3 22.5t-9.5 12t-11.5 4t-15 0.5h-383v-504z" />
<glyph unicode="S" horiz-adv-x="1243" d="M139 240v172l277 20v-188q0 -14 2.5 -22.5t9.5 -12t12.5 -4t16.5 -0.5h329q11 0 16.5 0.5t12.5 4t9.5 12t2.5 22.5v393q0 14 -2.5 22.5t-9.5 12t-12.5 4t-16.5 0.5h-405q-137 0 -187.5 50.5t-50.5 186.5v392q0 136 51.5 189.5t186.5 53.5h477q136 0 187 -53t51 -190v-166 l-277 -21v180q0 14 -2.5 22.5t-9.5 12t-12.5 4t-16.5 0.5h-315q-11 0 -16.5 -0.5t-12.5 -4t-9.5 -12t-2.5 -22.5v-385q0 -28 9.5 -34.5t31.5 -6.5h405q137 0 187.5 -50.5t50.5 -186.5v-395q0 -138 -51.5 -192t-186.5 -54h-491q-135 0 -186.5 54t-51.5 192z" />
<glyph unicode="T" horiz-adv-x="1021" d="M37 1327v211h948v-211h-336v-1327h-276v1327h-336z" />
<glyph unicode="U" horiz-adv-x="1318" d="M143 240v1298h279v-1294q0 -14 2.5 -22.5t9.5 -12t12.5 -4t16.5 -0.5h393q11 0 16.5 0.5t12.5 4t9.5 12t2.5 22.5v1294h279v-1298q0 -138 -51.5 -192t-188.5 -54h-553q-137 0 -188.5 54t-51.5 192z" />
<glyph unicode="V" horiz-adv-x="1148" d="M35 1538h293l245 -1350l246 1350h295l-315 -1538h-451z" />
<glyph unicode="W" horiz-adv-x="1802" d="M37 1538h295l180 -1348l186 1348h404l188 -1354l183 1354h292l-233 -1538h-442l-189 1364l-188 -1364h-445z" />
<glyph unicode="X" horiz-adv-x="1163" d="M6 0l359 791l-351 747h299l269 -614l270 614h299l-348 -747l354 -791h-301l-274 649l-275 -649h-301z" />
<glyph unicode="Y" horiz-adv-x="1081" d="M16 1538h279l246 -758l247 758h277l-385 -1006v-532h-277v532z" />
<glyph unicode="Z" horiz-adv-x="1073" d="M82 0v211l614 1116h-585v211h880v-211l-600 -1116h600v-211h-909z" />
<glyph unicode="[" horiz-adv-x="608" d="M131 -332v1870h406v-164h-150v-1542h150v-164h-406z" />
<glyph unicode="\" horiz-adv-x="800" d="M29 1538h231l512 -1538h-231z" />
<glyph unicode="]" horiz-adv-x="608" d="M72 -168h149v1542h-149v164h405v-1870h-405v164z" />
<glyph unicode="^" horiz-adv-x="917" d="M117 1090l237 448h207l238 -448h-189l-153 292l-150 -292h-190z" />
<glyph unicode="_" horiz-adv-x="966" d="M-10 -25h987v-135h-987v135z" />
<glyph unicode="`" horiz-adv-x="712" d="M70 1538h276l250 -354h-176z" />
<glyph unicode="a" horiz-adv-x="1185" d="M119 231v263q0 115 51.5 163t185.5 48h424v229q0 28 -9 34.5t-30 6.5h-577l20 209h629q137 0 187.5 -51t50.5 -187v-946h-271v526h-350q-15 0 -21.5 -1.5t-12 -10.5t-5.5 -27v-245q0 -18 5.5 -27t12 -10.5t21.5 -1.5h348l-80 -203h-342q-136 0 -186.5 48.5t-50.5 182.5z " />
<glyph unicode="b" horiz-adv-x="1204" d="M135 229v1348h271v-1333q0 -14 2.5 -22.5t9 -12t12 -4t16.5 -0.5h314q15 0 21.5 1.5t12 10.5t5.5 27v690q0 18 -5.5 27t-12 10.5t-21.5 1.5h-352l81 211h342q137 0 187.5 -50t50.5 -186v-719q0 -135 -50.5 -185t-187.5 -50h-458q-137 0 -187.5 50t-50.5 185z" />
<glyph unicode="c" horiz-adv-x="1196" d="M135 229v725q0 135 51 185.5t187 50.5h450q137 0 187.5 -50t50.5 -186v-166l-270 -20v172q0 18 -5.5 27t-12 10.5t-21.5 1.5h-306q-13 0 -19.5 -1.5t-12.5 -10.5t-6 -27v-696q0 -19 6 -28.5t12.5 -11t19.5 -1.5h306q15 0 21.5 1.5t12 11t5.5 28.5v172l270 -21v-166 q0 -135 -50.5 -185t-187.5 -50h-450q-137 0 -187.5 50t-50.5 185z" />
<glyph unicode="d" horiz-adv-x="1204" d="M135 236v712q0 136 50.5 186t187.5 50h426v393h270v-1577h-270v973h-355q-14 0 -20.5 -1.5t-12 -10t-5.5 -27.5v-684q0 -19 5.5 -27.5t12 -10t20.5 -1.5h353l-82 -211h-342q-136 0 -187 50.5t-51 185.5z" />
<glyph unicode="e" horiz-adv-x="1198" d="M135 238v714q0 136 50.5 187t187.5 51h450q138 0 189 -50.5t51 -187.5v-485h-657v-217q0 -28 9 -34.5t31 -6.5h601l-21 -209h-653q-135 0 -186.5 51t-51.5 187zM406 645h391v307q0 14 -2.5 22.5t-9.5 12t-12.5 4t-16.5 0.5h-310q-11 0 -16.5 -0.5t-12 -4t-9 -12 t-2.5 -22.5v-307z" />
<glyph unicode="f" horiz-adv-x="698" d="M20 973v211h160v157q0 135 51 185.5t187 50.5h233v-195h-178q-10 0 -15 -1t-11.5 -4t-9.5 -12t-3 -24v-157h217v-211h-217v-973h-254v973h-160z" />
<glyph unicode="g" horiz-adv-x="1212" d="M135 238v714q0 136 50.5 187t187.5 51h465q137 0 188 -51t51 -187v-1136q0 -137 -50.5 -187.5t-188.5 -50.5h-672l20 213h580q15 0 21.5 1.5t12 10.5t5.5 27v1110q0 18 -5.5 27t-12 10.5t-21.5 1.5h-322q-13 0 -19.5 -1.5t-12.5 -10.5t-6 -27v-690q0 -18 6 -27 t12.5 -10.5t19.5 -1.5h359l-82 -211h-348q-137 0 -187.5 51t-50.5 187z" />
<glyph unicode="h" horiz-adv-x="1198" d="M135 0v1577h271v-1577h-271zM408 973l81 211h336q137 0 187.5 -50t50.5 -186v-948h-272v934q0 18 -5.5 27t-12 10.5t-21.5 1.5h-344z" />
<glyph unicode="i" horiz-adv-x="542" d="M135 0v1184h273v-1184h-273zM135 1395v182h273v-182h-273z" />
<glyph unicode="j" horiz-adv-x="542" d="M-39 -422l21 213h114q15 0 21.5 1.5t12 10.5t5.5 27v1354h273v-1368q0 -136 -51.5 -187t-186.5 -51h-209zM135 1395v182h273v-182h-273z" />
<glyph unicode="k" horiz-adv-x="1146" d="M135 0v1577h271v-1577h-271zM406 598l385 584h299l-385 -584l409 -598h-301z" />
<glyph unicode="l" horiz-adv-x="540" d="M135 0v1577h271v-1577h-271z" />
<glyph unicode="m" horiz-adv-x="1839" d="M135 0v1184h271v-1184h-271zM406 973l83 211h328q137 0 187.5 -50t50.5 -186v-948h-273v934q0 18 -5.5 27t-12 10.5t-21.5 1.5h-337zM1057 973l82 211h327q138 0 188 -50t50 -186v-948h-272v934q0 18 -5.5 27t-12 10.5t-21.5 1.5h-336z" />
<glyph unicode="n" horiz-adv-x="1208" d="M135 0v1184h271v-1184h-271zM406 973l83 211h347q137 0 187 -50t50 -186v-948h-272v934q0 18 -5.5 27t-12 10.5t-21.5 1.5h-356z" />
<glyph unicode="o" horiz-adv-x="1204" d="M135 229v725q0 135 51 185.5t187 50.5h458q137 0 187.5 -50t50.5 -186v-725q0 -135 -50.5 -185t-187.5 -50h-458q-137 0 -187.5 50t-50.5 185zM406 244q0 -14 2.5 -22.5t9 -12t12 -4t16.5 -0.5h314q15 0 21.5 1.5t12 10.5t5.5 27v696q0 18 -5.5 27t-12 10.5t-21.5 1.5 h-314q-11 0 -16.5 -0.5t-12 -4t-9 -12t-2.5 -22.5v-696z" />
<glyph unicode="p" horiz-adv-x="1204" d="M135 -387v1571h696q136 0 187 -50.5t51 -185.5v-712q0 -136 -50.5 -186t-187.5 -50h-342l-81 211h352q15 0 21.5 1.5t12 10.5t5.5 27v684q0 18 -5.5 27t-12 10.5t-21.5 1.5h-354v-1360h-271z" />
<glyph unicode="q" horiz-adv-x="1204" d="M135 236v718q0 135 51 185.5t187 50.5h458q136 0 187 -50.5t51 -185.5v-1341h-270v1327q0 14 -2.5 22.5t-9.5 12t-12.5 4t-16.5 0.5h-314q-14 0 -20.5 -1.5t-12 -10t-5.5 -27.5v-690q0 -19 5.5 -27.5t12 -10t20.5 -1.5h353l-82 -211h-342q-137 0 -187.5 50t-50.5 186z " />
<glyph unicode="r" horiz-adv-x="792" d="M135 0v1184h271v-1184h-271zM406 965l83 219h281v-219h-364z" />
<glyph unicode="s" horiz-adv-x="1187" d="M125 231v97l272 20v-119q0 -28 9 -34.5t30 -6.5h318q10 0 15 1t11.5 4t9.5 12t3 24v246q0 15 -3 24t-9.5 12t-11.5 4t-15 1h-383q-135 0 -186.5 52.5t-51.5 181.5v202q0 138 51 188t189 50h438q137 0 187.5 -51t50.5 -187v-88l-271 -28v120q0 14 -3 22.5t-9.5 12t-11.5 4 t-15 0.5h-295q-14 0 -20.5 -1.5t-12 -10t-5.5 -27.5v-225q0 -19 5.5 -27.5t12 -10t20.5 -1.5h383q134 0 185 -52.5t51 -180.5v-228q0 -136 -50.5 -186.5t-187.5 -50.5h-460q-138 0 -189 50.5t-51 186.5z" />
<glyph unicode="t" horiz-adv-x="749" d="M23 971v211h161v254l271 41v-295h241v-211h-241v-721q0 -18 5.5 -27t12 -10.5t21.5 -1.5h202v-211h-274q-136 0 -187 50.5t-51 185.5v735h-161z" />
<glyph unicode="u" horiz-adv-x="1208" d="M135 236v948h273v-934q0 -19 5.5 -27.5t12 -10t20.5 -1.5h357l-84 -211h-346q-137 0 -187.5 50t-50.5 186zM803 0v1184h270v-1184h-270z" />
<glyph unicode="v" horiz-adv-x="1052" d="M37 1184h276l213 -1053l213 1053h277l-248 -1184h-483z" />
<glyph unicode="w" horiz-adv-x="1665" d="M41 1184h272l166 -1014l174 1014h359l172 -1008l168 1008h272l-192 -1184h-435l-166 997l-163 -997h-432z" />
<glyph unicode="x" horiz-adv-x="1054" d="M31 0l260 592l-256 592h278l213 -494l213 494h281l-258 -592l262 -592h-281l-217 496l-217 -496h-278z" />
<glyph unicode="y" horiz-adv-x="1046" d="M49 1184h268l215 -1055l195 1055h270l-247 -1366q-25 -137 -83 -187.5t-192 -50.5h-307l18 211h246q15 0 22 1.5t14 10t11 27.5l35 170h-221z" />
<glyph unicode="z" horiz-adv-x="1036" d="M82 0v211l555 762h-528v211h845v-209l-555 -764h555v-211h-872z" />
<glyph unicode="{" horiz-adv-x="606" d="M68 563v144h10q76 0 76 79v512q0 138 49.5 189t187.5 51h144v-166h-89q-22 0 -31 -7t-9 -32v-512q0 -84 -35 -128t-109 -58q74 -14 109 -58t35 -128v-576q0 -25 9 -32t31 -7h89v-166h-144q-138 0 -187.5 51t-49.5 189v575q0 40 -20.5 60t-55.5 20h-10z" />
<glyph unicode="|" horiz-adv-x="518" d="M152 -332v1870h258v-1870h-258z" />
<glyph unicode="}" horiz-adv-x="606" d="M72 -166h88q22 0 31.5 7t9.5 32v576q0 84 34.5 128t108.5 58q-74 14 -108.5 58t-34.5 128v512q0 25 -9.5 32t-31.5 7h-88v166h143q138 0 188 -51t50 -189v-512q0 -79 75 -79h11v-144h-11q-35 0 -55 -20t-20 -60v-575q0 -138 -50 -189t-188 -51h-143v166z" />
<glyph unicode="~" horiz-adv-x="972" d="M104 639v217q2 3 7 8t22.5 18.5t38 23.5t55.5 18t74 8q62 0 118.5 -18t93 -39.5t89 -39.5t107.5 -18q24 0 47 4.5t41 11t34.5 16t28.5 18.5t22.5 18.5t16 16.5t9.5 12l5 6v-215q-2 -3 -7 -8.5t-22.5 -20t-39 -25t-58 -19.5t-77.5 -9q-57 0 -111 18t-90 40t-90.5 40 t-112.5 18q-35 0 -68.5 -10t-55.5 -23t-40.5 -29t-26 -25t-10.5 -13z" />
<glyph unicode="&#xa1;" horiz-adv-x="489" d="M115 168l55 545h152l55 -545v-565h-262v565zM123 930v211h246v-211h-246z" />
<glyph unicode="&#xa2;" horiz-adv-x="1146" d="M135 408v733q0 135 50.5 185t187.5 50h131v129h158v-129h120q138 0 188 -50t50 -185v-170l-270 -21v176q0 18 -5.5 27t-12 10.5t-21.5 1.5h-265q-13 0 -19.5 -1.5t-12.5 -10.5t-6 -27v-704q0 -19 6 -28.5t12.5 -11t19.5 -1.5h265q15 0 21.5 1.5t12 11t5.5 28.5v176 l270 -20v-170q0 -135 -51 -185.5t-187 -50.5h-120v-131h-158v131h-131q-136 0 -187 50.5t-51 185.5z" />
<glyph unicode="&#xa3;" horiz-adv-x="995" d="M90 0v211q8 0 22 6t31.5 19.5t30 43t12.5 68.5v365h-96v184h96v397q0 136 51.5 190t186.5 54h438v-211h-358q-11 0 -16.5 -0.5t-12.5 -4.5t-9.5 -12.5t-2.5 -23.5v-389h323v-184h-323v-344q0 -55 -14.5 -94.5t-28.5 -51.5l-14 -12h538v-211h-854z" />
<glyph unicode="&#xa5;" horiz-adv-x="1077" d="M14 1538h279l244 -758l247 758h277l-328 -850h242v-162h-297v-143h297v-162h-297v-221h-279v221h-301v162h301v143h-301v162h244z" />
<glyph unicode="&#xa6;" horiz-adv-x="550" d="M143 -438v907h263v-907h-263zM143 670v907h263v-907h-263z" />
<glyph unicode="&#xa7;" horiz-adv-x="1175" d="M131 -29v131l262 21v-139q0 -14 3 -22.5t9.5 -12t11.5 -4t15 -0.5h309q11 0 16.5 0.5t12.5 4t9.5 12t2.5 22.5v301q0 28 -9.5 34.5t-31.5 6.5h-372q-137 0 -187.5 50.5t-50.5 186.5v737q0 137 50 187.5t188 50.5h438q137 0 187 -50.5t50 -187.5v-120l-262 -21v129 q0 14 -2.5 22.5t-9.5 12t-12.5 4t-16.5 0.5h-309q-10 0 -15 -0.5t-11.5 -4t-9.5 -12t-3 -22.5v-307q0 -16 6.5 -24.5t13 -9.5t19.5 -1h375q138 0 187.5 -50t49.5 -187v-738q0 -137 -50 -187t-187 -50h-438q-137 0 -187.5 50.5t-50.5 186.5zM393 547q0 -15 3 -24t9.5 -12 t11.5 -4t15 -1h350v219q0 14 -2.5 22.5t-9.5 12t-12.5 4t-16.5 0.5h-348v-217z" />
<glyph unicode="&#xa8;" horiz-adv-x="925" d="M117 1260v219h235v-219h-235zM571 1260v219h236v-219h-236z" />
<glyph unicode="&#xa9;" horiz-adv-x="1466" d="M94 918q0 129 51 247.5t136.5 204.5t203.5 137.5t248 51.5t248 -51.5t203.5 -137.5t136.5 -204.5t51 -247.5q0 -130 -50.5 -249t-136.5 -205t-204 -137t-248 -51t-248 51t-204 137t-136.5 205t-50.5 249zM199 918q0 -145 72 -268.5t195 -195t267 -71.5q108 0 206.5 42.5 t170 114t114 170.5t42.5 208q0 144 -71.5 266.5t-194.5 194t-267 71.5t-267 -71.5t-195 -194t-72 -266.5zM475 872v43v17q0 75 1.5 108.5t11 79t29.5 63.5t57.5 32t95.5 14h73q70 0 111.5 -6t72 -24.5t42.5 -53t12 -90.5v-33l-150 -10v49q0 23 -7 28t-25 5h-135 q-12 0 -18 -1t-11.5 -9t-5.5 -23v-291q0 -15 5.5 -23t11.5 -9t18 -1h135q12 0 17.5 1t10 8.5t4.5 23.5v49l150 -10v-33q0 -104 -45.5 -140t-161.5 -36h-43q-39 0 -68 1t-54.5 6t-43 9t-32.5 15.5t-24 20t-16 28t-10 34.5t-5 44t-2.5 51.5t-0.5 62.5z" />
<glyph unicode="&#xaa;" horiz-adv-x="1128" d="M121 639v225q0 135 50.5 185.5t186.5 50.5h402v186q0 28 -9 34.5t-30 6.5h-555l18 211h516q73 0 119 -4t82.5 -17.5t55 -32.5t31 -57.5t15.5 -82t3 -115.5v-826h-246v512h-352q-12 0 -16.5 -0.5t-12 -3.5t-10 -11.5t-2.5 -22.5v-222q0 -28 9.5 -34.5t31.5 -6.5h350 l-82 -211h-318q-136 0 -186.5 50.5t-50.5 185.5z" />
<glyph unicode="&#xab;" horiz-adv-x="1161" d="M37 768v16l338 435h223l-324 -445l324 -442h-223zM528 768v16l338 435h224l-324 -445l324 -442h-224z" />
<glyph unicode="&#xac;" horiz-adv-x="1101" d="M94 676v201h877v-437h-223v236h-654z" />
<glyph unicode="&#xad;" horiz-adv-x="835" d="M90 676v201h655v-201h-655z" />
<glyph unicode="&#xae;" horiz-adv-x="1466" d="M94 918q0 130 51 248.5t136.5 204.5t204.5 137t249 51t248 -51t203 -137t135.5 -204.5t50.5 -248.5t-50.5 -249t-135.5 -205t-203 -137t-248 -51q-174 0 -321.5 86t-233.5 234t-86 322zM201 918q0 -145 71.5 -268.5t194.5 -195t268 -71.5q108 0 206.5 42.5t170 114 t114 170.5t42.5 208q0 145 -71.5 267.5t-194.5 193.5t-267 71q-145 0 -268 -71t-194.5 -193.5t-71.5 -267.5zM492 604v625h323q103 0 138.5 -30t35.5 -116v-94q0 -82 -33 -113.5t-129 -31.5h-16l121 -17l78 -223h-158l-80 240h-127v-240h-153zM645 938h156q12 0 17.5 1 t10.5 8.5t5 23.5v102q0 24 -8 29.5t-25 5.5h-156v-170z" />
<glyph unicode="&#xaf;" horiz-adv-x="962" d="M143 1284v178h674v-178h-674z" />
<glyph unicode="&#xb0;" horiz-adv-x="872" d="M109 1245q0 135 96 231.5t231 96.5t231.5 -96.5t96.5 -231.5t-96.5 -231t-231.5 -96t-231 96t-96 231zM274 1245q0 -66 48 -114t114 -48q65 0 112.5 48t47.5 114t-47.5 113t-112.5 47q-66 0 -114 -47t-48 -113z" />
<glyph unicode="&#xb1;" horiz-adv-x="1224" d="M90 0v168h1045v-168h-1045zM90 682v188h426v373h191v-373h428v-188h-428v-373h-191v373h-426z" />
<glyph unicode="&#xb2;" horiz-adv-x="845" d="M131 741v306q0 68 25 93t94 25h248q7 0 10.5 1t6.5 5t3 13v184q0 12 -4.5 15t-15.5 3h-152q-6 0 -9 -0.5t-6 -5t-3 -12.5v-80l-197 21v90q0 68 25 93.5t94 25.5h346q69 0 94 -25.5t25 -93.5v-232q0 -69 -25.5 -98t-93.5 -29h-250q-6 0 -9 -0.5t-6 -5t-3 -12.5v-150h387 v-131h-584z" />
<glyph unicode="&#xb3;" horiz-adv-x="845" d="M129 860v98l197 21v-88q0 -9 2.5 -13t6 -5t9.5 -1h154q6 0 9.5 1t6 5t2.5 13v172q0 9 -3 14t-6 5.5t-9 0.5h-232v91l203 212h-322v132h566v-99l-201 -225h55q51 0 78.5 -5t43.5 -24t20 -45t4 -78v-147q0 -93 -21.5 -123.5t-97.5 -30.5h-344q-69 0 -95 25.5t-26 93.5z" />
<glyph unicode="&#xb4;" horiz-adv-x="712" d="M70 1184l252 354h274l-348 -354h-178z" />
<glyph unicode="&#xb5;" horiz-adv-x="1259" d="M143 -377v1561h271v-936q0 -37 39 -37h352l-82 -211h-309v-377h-271zM807 238v946h272v-934q0 -18 5.5 -27t12 -10.5t21.5 -1.5h105v-211h-179q-136 0 -186.5 50.5t-50.5 187.5z" />
<glyph unicode="&#xb6;" horiz-adv-x="1140" d="M45 1196v33q0 148 95 228.5t268 80.5h602v-1868h-166v1702h-219v-1702h-166v1217h-51q-172 0 -267.5 81t-95.5 228z" />
<glyph unicode="&#xb7;" horiz-adv-x="505" d="M135 657v236h236v-236h-236z" />
<glyph unicode="&#xb8;" horiz-adv-x="749" d="M143 -330q81 -30 158 -30q129 0 129 69q0 41 -30.5 60.5t-73.5 19.5q-52 0 -95 -16l-45 53l133 184h109l-92 -131l4 -2q22 10 66 10q85 0 142.5 -41.5t57.5 -121.5q0 -50 -25.5 -89.5t-67 -61.5t-88 -33t-95.5 -11q-103 0 -187 35v106z" />
<glyph unicode="&#xb9;" horiz-adv-x="458" d="M131 750v763l197 13v-776h-197z" />
<glyph unicode="&#xba;" horiz-adv-x="1128" d="M121 637v670q0 135 51 185t188 50h408q138 0 188 -50t50 -185v-670q0 -135 -51 -185.5t-187 -50.5h-408q-137 0 -188 50.5t-51 185.5zM369 651q0 -18 5.5 -27t12 -10.5t21.5 -1.5h313q15 0 21.5 1.5t12 10.5t5.5 27v641q0 18 -5.5 27t-12 10.5t-21.5 1.5h-313 q-15 0 -21.5 -1.5t-12 -10.5t-5.5 -27v-641z" />
<glyph unicode="&#xbb;" horiz-adv-x="1161" d="M72 332l325 442l-325 445h225l338 -435v-16l-338 -436h-225zM563 332l326 442l-326 445h225l338 -435v-16l-338 -436h-225z" />
<glyph unicode="&#xbc;" horiz-adv-x="1572" d="M131 0l971 1538h110l-972 -1538h-109zM213 750v761l197 15v-776h-197zM786 215v64l140 509h190l-123 -464h193v464h196v-464h60v-109h-60v-195h-196v195h-400z" />
<glyph unicode="&#xbd;" horiz-adv-x="1605" d="M131 0l973 1538h108l-970 -1538h-111zM213 750v763l197 13v-776h-197zM891 20v306q0 67 25.5 92.5t93.5 25.5h250q20 0 20 19v182q0 13 -5 17t-15 4h-152q-11 0 -16 -3.5t-5 -17.5v-78l-196 21v90q0 67 25.5 92t93.5 25h346q69 0 94 -24.5t25 -92.5v-232q0 -69 -25.5 -98 t-93.5 -29h-248q-6 0 -8.5 -0.5t-6 -2t-5 -5.5t-1.5 -10v-149h388v-132h-584z" />
<glyph unicode="&#xbe;" horiz-adv-x="1830" d="M129 860v98l197 21v-88q0 -9 2.5 -13t6 -5t9.5 -1h154q6 0 9.5 1t6 5t2.5 13v172q0 9 -3 14t-6 5.5t-9 0.5h-232v91l203 212h-322v132h566v-99l-201 -225h55q51 0 78.5 -5t43.5 -24t20 -45t4 -78v-147q0 -93 -21.5 -123.5t-97.5 -30.5h-344q-69 0 -95 25.5t-26 93.5z M389 0l973 1538h108l-972 -1538h-109zM1044 215v64l140 509h190l-123 -464h193v464h196v-464h60v-109h-60v-195h-196v195h-400z" />
<glyph unicode="&#xbf;" horiz-adv-x="1110" d="M129 -37v230q0 93 9 144.5t38 83t73 41t124 9.5h108q11 0 16.5 0.5t12.5 4t9.5 12t2.5 22.5v203h244v-117q0 -99 -6.5 -154t-28.5 -95t-61 -54t-107 -14h-133q-10 0 -15 -0.5t-11.5 -4t-9.5 -12t-3 -22.5v-396q0 -15 3 -24t9.5 -12t11.5 -4t15 -1h297q11 0 16.5 0.5 t12.5 4.5t9.5 12.5t2.5 23.5v170l260 -20v-92q0 -64 -3 -106t-12 -79.5t-25 -59t-43 -37.5t-64 -22t-90 -6h-377q-43 0 -77 2t-62 9.5t-48.5 13t-36 22.5t-26 27.5t-17.5 39t-10.5 45.5t-5.5 57.5t-2 65v77.5v12zM510 903v236h268v-236h-268z" />
<glyph unicode="&#xc0;" d="M37 0l360 1538h465l363 -1538h-289l-68 297h-477l-65 -297h-289zM367 1993h276l250 -355h-176zM422 467h418l-211 899z" />
<glyph unicode="&#xc1;" d="M37 0l360 1538h465l363 -1538h-289l-68 297h-477l-65 -297h-289zM369 1638l252 355h274l-348 -355h-178zM422 467h418l-211 899z" />
<glyph unicode="&#xc2;" d="M37 0l360 1538h465l363 -1538h-289l-68 297h-477l-65 -297h-289zM211 1636l264 357h316l256 -357h-238l-180 258l-180 -258h-238zM422 467h418l-211 899z" />
<glyph unicode="&#xc3;" d="M37 0l360 1538h465l363 -1538h-289l-68 297h-477l-65 -297h-289zM252 1640q9 67 34.5 127t74 104t108.5 44q61 0 167.5 -51.5t164.5 -51.5q71 0 94 97h111q-7 -57 -22 -104.5t-40 -87.5t-63 -62.5t-86 -22.5q-41 0 -87.5 17t-81.5 37.5t-80.5 37.5t-84.5 17t-64 -29 t-35 -72h-110zM422 467h418l-211 899z" />
<glyph unicode="&#xc4;" d="M37 0l360 1538h465l363 -1538h-289l-68 297h-477l-65 -297h-289zM285 1638v220h235v-220h-235zM422 467h418l-211 899zM739 1638v220h236v-220h-236z" />
<glyph unicode="&#xc5;" d="M37 0l360 1538h465l363 -1538h-289l-68 297h-477l-65 -297h-289zM422 467h418l-211 899zM428 1720q0 84 59.5 144.5t143.5 60.5t142 -61t58 -144q0 -82 -58.5 -142t-141.5 -60q-85 0 -144 59t-59 143zM541 1720q0 -37 26.5 -64.5t63.5 -27.5q35 0 61.5 27.5t26.5 64.5 t-26.5 64.5t-61.5 27.5q-36 0 -63 -28t-27 -64z" />
<glyph unicode="&#xc6;" horiz-adv-x="1880" d="M2 0l754 1538h1013v-211h-550v-1116h555v-211h-818v297h-514l-145 -297h-295zM516 473h440v877zM1221 883h530v-219h-473z" />
<glyph unicode="&#xc7;" horiz-adv-x="1265" d="M143 240v1063q0 136 51.5 189.5t186.5 53.5h512q136 0 184.5 -52.5t50.5 -190.5l2 -195l-278 -21v207q0 15 -3 24t-9.5 12t-11.5 4t-15 1h-352q-10 0 -15 -1t-11.5 -4t-9.5 -12t-3 -24v-1050q0 -15 3 -24t9.5 -12t11.5 -4t15 -1h352q10 0 15 1t11.5 4t9.5 12t3 24v217 l278 -19l-2 -202q-2 -139 -51.5 -192.5t-183.5 -53.5h-512q-134 0 -186 54.5t-52 191.5zM399 -330q81 -30 158 -30q129 0 129 69q0 41 -30.5 60.5t-73.5 19.5q-52 0 -95 -16l-45 53l133 184h109l-92 -131l4 -2q22 10 66 10q85 0 142.5 -41.5t57.5 -121.5q0 -50 -25.5 -89.5 t-67 -61.5t-88 -33t-95.5 -11q-103 0 -187 35v106z" />
<glyph unicode="&#xc8;" horiz-adv-x="1091" d="M143 0v1538h820v-211h-541v-1116h545v-211h-824zM283 1993h276l250 -355h-176zM424 879h520v-211h-463z" />
<glyph unicode="&#xc9;" horiz-adv-x="1091" d="M143 0v1538h820v-211h-541v-1116h545v-211h-824zM283 1626l252 354h274l-348 -354h-178zM424 879h520v-211h-463z" />
<glyph unicode="&#xca;" horiz-adv-x="1091" d="M127 1636l264 357h316l256 -357h-238l-180 258l-180 -258h-238zM143 0v1538h820v-211h-541v-1116h545v-211h-824zM424 879h520v-211h-463z" />
<glyph unicode="&#xcb;" horiz-adv-x="1091" d="M143 0v1538h820v-211h-541v-1116h545v-211h-824zM199 1642v220h235v-220h-235zM424 879h520v-211h-463zM653 1642v220h236v-220h-236z" />
<glyph unicode="&#xcc;" horiz-adv-x="567" d="M20 1993h277l250 -355h-176zM143 0v1538h279v-1538h-279z" />
<glyph unicode="&#xcd;" horiz-adv-x="567" d="M20 1638l252 355h275l-348 -355h-179zM143 0v1538h279v-1538h-279z" />
<glyph unicode="&#xce;" horiz-adv-x="567" d="M-133 1636l264 357h315l256 -357h-237l-180 258l-181 -258h-237zM143 0v1538h279v-1538h-279z" />
<glyph unicode="&#xcf;" horiz-adv-x="567" d="M-61 1651v219h235v-219h-235zM143 0v1538h279v-1538h-279zM393 1651v219h236v-219h-236z" />
<glyph unicode="&#xd0;" horiz-adv-x="1280" d="M41 676v201h102v661h754q138 0 188 -50.5t50 -187.5v-1062q0 -135 -51 -186.5t-187 -51.5h-754v676h-102zM422 211h395q11 0 16.5 0.5t12.5 4t9.5 12t2.5 22.5v1038q0 14 -2.5 22.5t-9.5 12t-12.5 4t-16.5 0.5h-395v-450h213v-201h-213v-465z" />
<glyph unicode="&#xd1;" horiz-adv-x="1468" d="M143 0v1538h459l455 -1300v1300h274v-1538h-457l-456 1300v-1300h-275zM354 1626q9 67 34.5 127t74 104t108.5 44q61 0 167.5 -51.5t164.5 -51.5q71 0 94 96h111q-7 -57 -22 -104t-40 -87t-63 -62.5t-86 -22.5q-51 0 -110.5 27t-117 54t-106.5 27q-39 0 -63.5 -28.5 t-34.5 -71.5h-111z" />
<glyph unicode="&#xd2;" horiz-adv-x="1320" d="M143 240v1060q0 136 51.5 190t186.5 54h559q135 0 185.5 -53.5t50.5 -190.5v-1060q0 -138 -51 -192t-185 -54h-559q-134 0 -186 54.5t-52 191.5zM395 1993h277l250 -355h-177zM422 244q0 -19 6 -27.5t12.5 -10t22.5 -1.5h395q15 0 21.5 1.5t12 10.5t5.5 27v1050 q0 18 -5.5 27t-12 10.5t-21.5 1.5h-395q-11 0 -16.5 -0.5t-12.5 -4t-9.5 -12t-2.5 -22.5v-1050z" />
<glyph unicode="&#xd3;" horiz-adv-x="1320" d="M143 240v1060q0 136 51.5 190t186.5 54h559q135 0 185.5 -53.5t50.5 -190.5v-1060q0 -138 -51 -192t-185 -54h-559q-134 0 -186 54.5t-52 191.5zM395 1638l252 355h275l-349 -355h-178zM422 244q0 -19 6 -27.5t12.5 -10t22.5 -1.5h395q15 0 21.5 1.5t12 10.5t5.5 27v1050 q0 18 -5.5 27t-12 10.5t-21.5 1.5h-395q-11 0 -16.5 -0.5t-12.5 -4t-9.5 -12t-2.5 -22.5v-1050z" />
<glyph unicode="&#xd4;" horiz-adv-x="1320" d="M143 240v1060q0 136 51.5 190t186.5 54h559q135 0 185.5 -53.5t50.5 -190.5v-1060q0 -138 -51 -192t-185 -54h-559q-134 0 -186 54.5t-52 191.5zM240 1636l264 357h315l256 -357h-237l-181 258l-180 -258h-237zM422 244q0 -19 6 -27.5t12.5 -10t22.5 -1.5h395 q15 0 21.5 1.5t12 10.5t5.5 27v1050q0 18 -5.5 27t-12 10.5t-21.5 1.5h-395q-11 0 -16.5 -0.5t-12.5 -4t-9.5 -12t-2.5 -22.5v-1050z" />
<glyph unicode="&#xd5;" horiz-adv-x="1320" d="M143 240v1060q0 136 51.5 190t186.5 54h559q135 0 185.5 -53.5t50.5 -190.5v-1060q0 -138 -51 -192t-185 -54h-559q-134 0 -186 54.5t-52 191.5zM281 1640q9 67 34.5 127t74 104t108.5 44q61 0 167 -51.5t164 -51.5q72 0 95 97h110q-7 -57 -22 -104.5t-40 -87.5 t-63 -62.5t-86 -22.5q-41 0 -87.5 17t-81.5 37.5t-80.5 37.5t-84.5 17q-73 0 -98 -101h-110zM422 244q0 -19 6 -27.5t12.5 -10t22.5 -1.5h395q15 0 21.5 1.5t12 10.5t5.5 27v1050q0 18 -5.5 27t-12 10.5t-21.5 1.5h-395q-11 0 -16.5 -0.5t-12.5 -4t-9.5 -12t-2.5 -22.5 v-1050z" />
<glyph unicode="&#xd6;" horiz-adv-x="1320" d="M143 240v1060q0 136 51.5 190t186.5 54h559q135 0 185.5 -53.5t50.5 -190.5v-1060q0 -138 -51 -192t-185 -54h-559q-134 0 -186 54.5t-52 191.5zM313 1638v220h236v-220h-236zM422 244q0 -19 6 -27.5t12.5 -10t22.5 -1.5h395q15 0 21.5 1.5t12 10.5t5.5 27v1050 q0 18 -5.5 27t-12 10.5t-21.5 1.5h-395q-11 0 -16.5 -0.5t-12.5 -4t-9.5 -12t-2.5 -22.5v-1050zM768 1638v220h236v-220h-236z" />
<glyph unicode="&#xd7;" horiz-adv-x="1531" d="M37 0l584 768l-584 770h289l438 -580l440 580h291l-586 -770l586 -768h-291l-440 578l-438 -578h-289z" />
<glyph unicode="&#xd8;" horiz-adv-x="1318" d="M123 4l45 82q-25 51 -25 154v1060q0 136 51.5 190t186.5 54h559q56 0 104 -10h152l-45 -82q25 -58 25 -152v-1060q0 -138 -51 -192t-185 -54h-559q-57 0 -105 10h-153zM422 545l436 788h-395q-11 0 -16.5 -0.5t-12.5 -4t-9.5 -12t-2.5 -22.5v-749zM461 205h397 q15 0 21.5 1.5t12 10.5t5.5 27v749z" />
<glyph unicode="&#xd9;" horiz-adv-x="1318" d="M143 240v1298h279v-1294q0 -14 2.5 -22.5t9.5 -12t12.5 -4t16.5 -0.5h393q11 0 16.5 0.5t12.5 4t9.5 12t2.5 22.5v1294h279v-1298q0 -138 -51.5 -192t-188.5 -54h-553q-137 0 -188.5 54t-51.5 192zM393 1993h277l250 -355h-177z" />
<glyph unicode="&#xda;" horiz-adv-x="1318" d="M143 240v1298h279v-1294q0 -14 2.5 -22.5t9.5 -12t12.5 -4t16.5 -0.5h393q11 0 16.5 0.5t12.5 4t9.5 12t2.5 22.5v1294h279v-1298q0 -138 -51.5 -192t-188.5 -54h-553q-137 0 -188.5 54t-51.5 192zM393 1638l252 355h275l-349 -355h-178z" />
<glyph unicode="&#xdb;" horiz-adv-x="1318" d="M143 240v1298h279v-1294q0 -14 2.5 -22.5t9.5 -12t12.5 -4t16.5 -0.5h393q11 0 16.5 0.5t12.5 4t9.5 12t2.5 22.5v1294h279v-1298q0 -138 -51.5 -192t-188.5 -54h-553q-137 0 -188.5 54t-51.5 192zM240 1636l264 357h315l256 -357h-237l-181 258l-180 -258h-237z" />
<glyph unicode="&#xdc;" horiz-adv-x="1318" d="M143 240v1298h279v-1294q0 -14 2.5 -22.5t9.5 -12t12.5 -4t16.5 -0.5h393q11 0 16.5 0.5t12.5 4t9.5 12t2.5 22.5v1294h279v-1298q0 -138 -51.5 -192t-188.5 -54h-553q-137 0 -188.5 54t-51.5 192zM313 1638v220h236v-220h-236zM768 1638v220h236v-220h-236z" />
<glyph unicode="&#xdd;" horiz-adv-x="1083" d="M16 1538h279l246 -758l247 758h277l-385 -1006v-532h-277v532zM276 1638l252 355h275l-348 -355h-179z" />
<glyph unicode="&#xde;" horiz-adv-x="1196" d="M139 0v1577h271v-395h426q51 0 88 -8.5t63 -19t42.5 -37.5t25.5 -47.5t13 -66t4.5 -75t0.5 -92.5v-11v-9.5v-10.5v-127q0 -92 -8.5 -146.5t-34.5 -93.5t-72 -54t-122 -15h-342l-82 211h352q14 0 20 1t12.5 10t6.5 27v314q0 14 -3 22.5t-9.5 12t-11.5 4t-15 0.5h-354v-971 h-271z" />
<glyph unicode="&#xdf;" d="M143 0v1307q0 136 50.5 186.5t185.5 50.5h504q135 0 185 -50.5t50 -186.5v-285q0 -114 -43.5 -170t-142.5 -68q100 -14 143 -68.5t43 -168.5v-309q0 -135 -50 -186.5t-185 -51.5h-359v207h277q15 0 21.5 1.5t12 10.5t5.5 27v383q0 65 -70 65h-246v180h246q28 0 49 16 t21 52v356q0 18 -5.5 27t-12 10.5t-21.5 1.5h-340q-15 0 -21.5 -1.5t-12 -10.5t-5.5 -27v-1298h-279z" />
<glyph unicode="&#xe0;" horiz-adv-x="1185" d="M119 231v263q0 115 51.5 163t185.5 48h424v229q0 28 -9 34.5t-30 6.5h-577l20 209h629q137 0 187.5 -51t50.5 -187v-946h-271v526h-350q-15 0 -21.5 -1.5t-12 -10.5t-5.5 -27v-245q0 -18 5.5 -27t12 -10.5t21.5 -1.5h348l-80 -203h-342q-136 0 -186.5 48.5t-50.5 182.5z M328 1645h276l250 -355h-176z" />
<glyph unicode="&#xe1;" horiz-adv-x="1185" d="M119 231v263q0 115 51.5 163t185.5 48h424v229q0 28 -9 34.5t-30 6.5h-577l20 209h629q137 0 187.5 -51t50.5 -187v-946h-271v526h-350q-15 0 -21.5 -1.5t-12 -10.5t-5.5 -27v-245q0 -18 5.5 -27t12 -10.5t21.5 -1.5h348l-80 -203h-342q-136 0 -186.5 48.5t-50.5 182.5z M328 1278l252 354h274l-348 -354h-178z" />
<glyph unicode="&#xe2;" horiz-adv-x="1185" d="M119 231v263q0 115 51.5 163t185.5 48h424v229q0 28 -9 34.5t-30 6.5h-577l20 209h629q137 0 187.5 -51t50.5 -187v-946h-271v526h-350q-15 0 -21.5 -1.5t-12 -10.5t-5.5 -27v-245q0 -18 5.5 -27t12 -10.5t21.5 -1.5h348l-80 -203h-342q-136 0 -186.5 48.5t-50.5 182.5z M174 1276l264 356h316l256 -356h-238l-180 258l-180 -258h-238z" />
<glyph unicode="&#xe3;" horiz-adv-x="1185" d="M119 231v263q0 115 51.5 163t185.5 48h424v229q0 28 -9 34.5t-30 6.5h-577l20 209h629q137 0 187.5 -51t50.5 -187v-946h-271v526h-350q-15 0 -21.5 -1.5t-12 -10.5t-5.5 -27v-245q0 -18 5.5 -27t12 -10.5t21.5 -1.5h348l-80 -203h-342q-136 0 -186.5 48.5t-50.5 182.5z M215 1319q14 106 71.5 190t145.5 84q61 0 167.5 -51t164.5 -51q71 0 94 96h111q-7 -57 -22 -104t-40 -87t-63 -62.5t-86 -22.5q-51 0 -110.5 27t-117 54t-106.5 27q-39 0 -63.5 -28.5t-34.5 -71.5h-111z" />
<glyph unicode="&#xe4;" horiz-adv-x="1185" d="M119 231v263q0 115 51.5 163t185.5 48h424v229q0 28 -9 34.5t-30 6.5h-577l20 209h629q137 0 187.5 -51t50.5 -187v-946h-271v526h-350q-15 0 -21.5 -1.5t-12 -10.5t-5.5 -27v-245q0 -18 5.5 -27t12 -10.5t21.5 -1.5h348l-80 -203h-342q-136 0 -186.5 48.5t-50.5 182.5z M246 1341v220h235v-220h-235zM700 1341v220h236v-220h-236z" />
<glyph unicode="&#xe5;" horiz-adv-x="1185" d="M119 231v263q0 115 51.5 163t185.5 48h424v229q0 28 -9 34.5t-30 6.5h-577l20 209h629q137 0 187.5 -51t50.5 -187v-946h-271v526h-350q-15 0 -21.5 -1.5t-12 -10.5t-5.5 -27v-245q0 -18 5.5 -27t12 -10.5t21.5 -1.5h348l-80 -203h-342q-136 0 -186.5 48.5t-50.5 182.5z M389 1442q0 84 59.5 144.5t143.5 60.5t142.5 -61t58.5 -144q0 -82 -59 -142.5t-142 -60.5q-84 0 -143.5 59.5t-59.5 143.5zM502 1442q0 -37 26.5 -64.5t63.5 -27.5q35 0 61.5 27.5t26.5 64.5t-26.5 64.5t-61.5 27.5q-36 0 -63 -28t-27 -64z" />
<glyph unicode="&#xe6;" horiz-adv-x="1839" d="M121 231v265q0 115 52.5 163t186.5 48h422v231q0 18 -5.5 27t-12 10.5t-21.5 1.5h-577l20 207h1284q138 0 189 -50.5t51 -187.5v-469h-657v-227q0 -14 3 -22.5t9.5 -12t11.5 -4t15 -0.5h598l-21 -211h-649q-136 0 -187 48.5t-51 182.5v308h-350q-15 0 -21.5 -1.5 t-12 -10.5t-5.5 -27v-250q0 -18 5.5 -27t12 -10.5t21.5 -1.5h348l-82 -211h-338q-137 0 -188 48.5t-51 182.5zM1053 645h391v299q0 14 -2.5 22.5t-9.5 12t-12.5 4t-16.5 0.5h-311q-10 0 -15 -0.5t-11.5 -4t-9.5 -12t-3 -22.5v-299z" />
<glyph unicode="&#xe7;" horiz-adv-x="1196" d="M133 229v725q0 135 51 185.5t187 50.5h450q137 0 187.5 -50t50.5 -186v-166l-271 -20v172q0 19 -5.5 27.5t-12 10t-20.5 1.5h-306q-13 0 -19.5 -1.5t-12.5 -10.5t-6 -27v-696q0 -19 6 -28.5t12.5 -11t19.5 -1.5h306q11 0 16 0.5t11 4.5t8.5 12.5t2.5 23.5v172l271 -21 v-166q0 -135 -50.5 -185t-187.5 -50h-450q-137 0 -187.5 50t-50.5 185zM365 -330q81 -30 157 -30q129 0 129 69q0 41 -30.5 60.5t-73.5 19.5q-51 0 -94 -16l-45 53l133 184h108l-92 -131l4 -2q23 10 66 10q85 0 142.5 -41.5t57.5 -121.5q0 -50 -25.5 -89.5t-67 -61.5 t-88 -33t-95.5 -11q-102 0 -186 35v106z" />
<glyph unicode="&#xe8;" horiz-adv-x="1198" d="M135 238v714q0 136 50.5 187t187.5 51h450q138 0 189 -50.5t51 -187.5v-485h-657v-217q0 -28 9 -34.5t31 -6.5h601l-21 -209h-653q-135 0 -186.5 51t-51.5 187zM334 1632h276l250 -354h-176zM406 645h391v307q0 14 -2.5 22.5t-9.5 12t-12.5 4t-16.5 0.5h-310 q-11 0 -16.5 -0.5t-12 -4t-9 -12t-2.5 -22.5v-307z" />
<glyph unicode="&#xe9;" horiz-adv-x="1198" d="M135 238v714q0 136 50.5 187t187.5 51h450q138 0 189 -50.5t51 -187.5v-485h-657v-217q0 -28 9 -34.5t31 -6.5h601l-21 -209h-653q-135 0 -186.5 51t-51.5 187zM334 1278l252 354h274l-348 -354h-178zM406 645h391v307q0 14 -2.5 22.5t-9.5 12t-12.5 4t-16.5 0.5h-310 q-11 0 -16.5 -0.5t-12 -4t-9 -12t-2.5 -22.5v-307z" />
<glyph unicode="&#xea;" horiz-adv-x="1198" d="M135 238v714q0 136 50.5 187t187.5 51h450q138 0 189 -50.5t51 -187.5v-485h-657v-217q0 -28 9 -34.5t31 -6.5h601l-21 -209h-653q-135 0 -186.5 51t-51.5 187zM180 1276l264 356h316l256 -356h-238l-180 258l-180 -258h-238zM406 645h391v307q0 14 -2.5 22.5t-9.5 12 t-12.5 4t-16.5 0.5h-310q-11 0 -16.5 -0.5t-12 -4t-9 -12t-2.5 -22.5v-307z" />
<glyph unicode="&#xeb;" horiz-adv-x="1198" d="M135 238v714q0 136 50.5 187t187.5 51h450q138 0 189 -50.5t51 -187.5v-485h-657v-217q0 -28 9 -34.5t31 -6.5h601l-21 -209h-653q-135 0 -186.5 51t-51.5 187zM252 1341v220h235v-220h-235zM406 645h391v307q0 14 -2.5 22.5t-9.5 12t-12.5 4t-16.5 0.5h-310 q-11 0 -16.5 -0.5t-12 -4t-9 -12t-2.5 -22.5v-307zM707 1341v220h235v-220h-235z" />
<glyph unicode="&#xec;" horiz-adv-x="542" d="M8 1632h277l250 -354h-177zM135 0v1184h273v-1184h-273z" />
<glyph unicode="&#xed;" horiz-adv-x="542" d="M8 1278l252 354h275l-349 -354h-178zM135 0v1184h273v-1184h-273z" />
<glyph unicode="&#xee;" horiz-adv-x="542" d="M-145 1276l264 356h315l256 -356h-237l-181 258l-180 -258h-237zM135 0v1184h273v-1184h-273z" />
<glyph unicode="&#xef;" horiz-adv-x="542" d="M-74 1341v220h236v-220h-236zM135 0v1184h273v-1184h-273zM381 1341v220h235v-220h-235z" />
<glyph unicode="&#xf0;" horiz-adv-x="1224" d="M135 365v454q0 70 1 109.5t6 83.5t12 65.5t23.5 45t36 32t53.5 17.5t72.5 10.5t96.5 1.5h365v108h-258v158h258v127h270v-127h121v-158h-121v-1292h-270v973h-355q-11 0 -16.5 -0.5t-12 -4t-9 -12t-2.5 -22.5v-684q0 -14 2.5 -22.5t9 -12t12 -4t16.5 -0.5h353l-82 -211 h-279q-173 0 -231 36q-53 32 -65 121q-7 51 -7 208z" />
<glyph unicode="&#xf1;" horiz-adv-x="1210" d="M135 0v1184h271v-1184h-271zM227 1311q14 106 71.5 190t145.5 84q61 0 167.5 -51t164.5 -51q71 0 94 96h111q-7 -57 -22 -104t-40 -87t-63 -62.5t-86 -22.5q-51 0 -110.5 27t-117 54t-106.5 27q-39 0 -63.5 -28.5t-34.5 -71.5h-111zM406 973l83 211h347q137 0 187 -50 t50 -186v-948h-272v934q0 18 -5.5 27t-12 10.5t-21.5 1.5h-356z" />
<glyph unicode="&#xf2;" horiz-adv-x="1206" d="M135 229v725q0 135 51 185.5t187 50.5h458q137 0 187.5 -50t50.5 -186v-725q0 -135 -50.5 -185t-187.5 -50h-458q-137 0 -187.5 50t-50.5 185zM338 1632h276l250 -354h-176zM406 244q0 -14 2.5 -22.5t9 -12t12 -4t16.5 -0.5h314q15 0 21.5 1.5t12 10.5t5.5 27v696 q0 18 -5.5 27t-12 10.5t-21.5 1.5h-314q-11 0 -16.5 -0.5t-12 -4t-9 -12t-2.5 -22.5v-696z" />
<glyph unicode="&#xf3;" horiz-adv-x="1206" d="M135 229v725q0 135 51 185.5t187 50.5h458q137 0 187.5 -50t50.5 -186v-725q0 -135 -50.5 -185t-187.5 -50h-458q-137 0 -187.5 50t-50.5 185zM338 1278l252 354h274l-348 -354h-178zM406 244q0 -14 2.5 -22.5t9 -12t12 -4t16.5 -0.5h314q15 0 21.5 1.5t12 10.5t5.5 27 v696q0 18 -5.5 27t-12 10.5t-21.5 1.5h-314q-11 0 -16.5 -0.5t-12 -4t-9 -12t-2.5 -22.5v-696z" />
<glyph unicode="&#xf4;" horiz-adv-x="1206" d="M135 229v725q0 135 51 185.5t187 50.5h458q137 0 187.5 -50t50.5 -186v-725q0 -135 -50.5 -185t-187.5 -50h-458q-137 0 -187.5 50t-50.5 185zM182 1276l264 356h316l256 -356h-238l-180 258l-180 -258h-238zM406 244q0 -14 2.5 -22.5t9 -12t12 -4t16.5 -0.5h314 q15 0 21.5 1.5t12 10.5t5.5 27v696q0 18 -5.5 27t-12 10.5t-21.5 1.5h-314q-11 0 -16.5 -0.5t-12 -4t-9 -12t-2.5 -22.5v-696z" />
<glyph unicode="&#xf5;" horiz-adv-x="1206" d="M135 229v725q0 135 51 185.5t187 50.5h458q137 0 187.5 -50t50.5 -186v-725q0 -135 -50.5 -185t-187.5 -50h-458q-137 0 -187.5 50t-50.5 185zM225 1319q14 106 71.5 190t145.5 84q61 0 167.5 -51t164.5 -51q71 0 94 96h111q-7 -57 -22 -104t-40 -87t-63 -62.5t-86 -22.5 q-51 0 -110.5 27t-117 54t-106.5 27q-39 0 -63.5 -28.5t-34.5 -71.5h-111zM406 244q0 -14 2.5 -22.5t9 -12t12 -4t16.5 -0.5h314q15 0 21.5 1.5t12 10.5t5.5 27v696q0 18 -5.5 27t-12 10.5t-21.5 1.5h-314q-11 0 -16.5 -0.5t-12 -4t-9 -12t-2.5 -22.5v-696z" />
<glyph unicode="&#xf6;" horiz-adv-x="1206" d="M135 229v725q0 135 51 185.5t187 50.5h458q137 0 187.5 -50t50.5 -186v-725q0 -135 -50.5 -185t-187.5 -50h-458q-137 0 -187.5 50t-50.5 185zM256 1341v220h236v-220h-236zM406 244q0 -14 2.5 -22.5t9 -12t12 -4t16.5 -0.5h314q15 0 21.5 1.5t12 10.5t5.5 27v696 q0 18 -5.5 27t-12 10.5t-21.5 1.5h-314q-11 0 -16.5 -0.5t-12 -4t-9 -12t-2.5 -22.5v-696zM711 1341v220h235v-220h-235z" />
<glyph unicode="&#xf7;" horiz-adv-x="1009" d="M78 676v201h887v-201h-887zM395 233v236h252v-236h-252zM395 1081v236h252v-236h-252z" />
<glyph unicode="&#xf8;" horiz-adv-x="1204" d="M115 4l45 72q-25 51 -25 153v725q0 135 51 185.5t187 50.5h458q61 0 109 -10h150l-48 -74q27 -52 27 -152v-725q0 -135 -50.5 -185t-187.5 -50h-458q-59 0 -111 10h-147zM406 455l335 524h-295q-11 0 -16.5 -0.5t-12 -4t-9 -12t-2.5 -22.5v-485zM461 205h299 q15 0 21.5 1.5t12 10.5t5.5 27v483z" />
<glyph unicode="&#xf9;" horiz-adv-x="1206" d="M131 236v948h272v-934q0 -18 5.5 -27t12 -10.5t21.5 -1.5h357l-84 -211h-346q-137 0 -187.5 50t-50.5 186zM338 1632h276l250 -354h-176zM799 0v1184h270v-1184h-270z" />
<glyph unicode="&#xfa;" horiz-adv-x="1206" d="M131 236v948h272v-934q0 -18 5.5 -27t12 -10.5t21.5 -1.5h357l-84 -211h-346q-137 0 -187.5 50t-50.5 186zM338 1278l252 354h274l-348 -354h-178zM799 0v1184h270v-1184h-270z" />
<glyph unicode="&#xfb;" horiz-adv-x="1206" d="M131 236v948h272v-934q0 -18 5.5 -27t12 -10.5t21.5 -1.5h357l-84 -211h-346q-137 0 -187.5 50t-50.5 186zM182 1276l264 356h316l256 -356h-238l-180 258l-180 -258h-238zM799 0v1184h270v-1184h-270z" />
<glyph unicode="&#xfc;" horiz-adv-x="1206" d="M131 236v948h272v-934q0 -18 5.5 -27t12 -10.5t21.5 -1.5h357l-84 -211h-346q-137 0 -187.5 50t-50.5 186zM256 1350v219h236v-219h-236zM711 1350v219h235v-219h-235zM799 0v1184h270v-1184h-270z" />
<glyph unicode="&#xfd;" horiz-adv-x="1046" d="M49 1184h268l215 -1055l195 1055h270l-247 -1366q-25 -137 -83 -187.5t-192 -50.5h-307l18 211h246q15 0 22 1.5t14 10t11 27.5l35 170h-221zM258 1278l252 354h274l-348 -354h-178z" />
<glyph unicode="&#xfe;" horiz-adv-x="1216" d="M139 -332v1909h271v-1366h356q10 0 15 0.5t11.5 4t9.5 12t3 22.5v682q0 14 -3 22.5t-9.5 12t-11.5 4t-15 0.5h-354l82 211h258q62 0 104 -1.5t78.5 -10t57.5 -16.5t38.5 -30.5t25 -42t12.5 -61t6 -77.5t1 -101v-502q0 -81 -4 -129.5t-17.5 -93.5t-39.5 -68t-69 -36 t-107 -13h-428v-332h-271z" />
<glyph unicode="&#xff;" horiz-adv-x="1046" d="M49 1184h268l215 -1055l195 1055h270l-247 -1366q-25 -137 -83 -187.5t-192 -50.5h-307l18 211h246q15 0 22 1.5t14 10t11 27.5l35 170h-221zM176 1341v220h236v-220h-236zM631 1341v220h235v-220h-235z" />
<glyph unicode="&#x152;" horiz-adv-x="1828" d="M143 246v1046q0 138 51.5 192t186.5 54h1335v-211h-540v-1116h544v-211h-1339q-135 0 -186.5 54t-51.5 192zM422 246q0 -28 9 -34.5t30 -6.5h436v1126h-436q-15 0 -21.5 -1.5t-12 -10.5t-5.5 -27v-1046zM1178 877h520v-209h-463z" />
<glyph unicode="&#x153;" horiz-adv-x="1843" d="M135 236v722q0 135 51 185.5t187 50.5h356q84 0 133.5 -17.5t73.5 -58.5q24 41 73.5 58.5t133.5 17.5h348q138 0 189 -50.5t51 -187.5v-491h-658v-215q0 -28 9.5 -34.5t31.5 -6.5h600l-20 -209h-551q-160 0 -205 72q-24 -40 -73.5 -56t-135.5 -16h-356q-136 0 -187 50.5 t-51 185.5zM406 240q0 -14 2.5 -22.5t9 -12t12 -4t16.5 -0.5h314q15 0 21.5 1.5t12 10.5t5.5 27v704q0 18 -5.5 27t-12 10.5t-21.5 1.5h-314q-11 0 -16.5 -0.5t-12 -4t-9 -12t-2.5 -22.5v-704zM1073 645h391v311q0 14 -2.5 22.5t-9.5 12t-12.5 4t-16.5 0.5h-309 q-11 0 -16.5 -0.5t-12.5 -4t-9.5 -12t-2.5 -22.5v-311z" />
<glyph unicode="&#x178;" horiz-adv-x="1083" d="M16 1538h279l246 -758l247 758h277l-385 -1006v-532h-277v532zM195 1630v219h235v-219h-235zM649 1630v219h236v-219h-236z" />
<glyph unicode="&#x2c6;" horiz-adv-x="1124" d="M143 1182l265 356h315l256 -356h-238l-180 258l-180 -258h-238z" />
<glyph unicode="&#x2dc;" horiz-adv-x="1040" d="M143 1225q14 106 71.5 190t145.5 84q61 0 167.5 -51t164.5 -51q71 0 94 96h111q-7 -57 -22 -104t-40 -87t-63 -62.5t-86 -22.5q-51 0 -110.5 27t-117 54t-106.5 27q-39 0 -63.5 -28.5t-34.5 -71.5h-111z" />
<glyph unicode="&#x2000;" horiz-adv-x="996" />
<glyph unicode="&#x2001;" horiz-adv-x="1993" />
<glyph unicode="&#x2002;" horiz-adv-x="996" />
<glyph unicode="&#x2003;" horiz-adv-x="1993" />
<glyph unicode="&#x2004;" horiz-adv-x="664" />
<glyph unicode="&#x2005;" horiz-adv-x="498" />
<glyph unicode="&#x2006;" horiz-adv-x="332" />
<glyph unicode="&#x2007;" horiz-adv-x="332" />
<glyph unicode="&#x2008;" horiz-adv-x="249" />
<glyph unicode="&#x2009;" horiz-adv-x="398" />
<glyph unicode="&#x200a;" horiz-adv-x="110" />
<glyph unicode="&#x2010;" horiz-adv-x="835" d="M90 676v201h655v-201h-655z" />
<glyph unicode="&#x2011;" horiz-adv-x="835" d="M90 676v201h655v-201h-655z" />
<glyph unicode="&#x2012;" horiz-adv-x="835" d="M90 676v201h655v-201h-655z" />
<glyph unicode="&#x2013;" horiz-adv-x="1046" d="M82 676v201h883v-201h-883z" />
<glyph unicode="&#x2014;" horiz-adv-x="1652" d="M82 676v201h1489v-201h-1489z" />
<glyph unicode="&#x2018;" horiz-adv-x="440" d="M94 1155v229l168 183h76l-94 -176h102v-236h-252z" />
<glyph unicode="&#x2019;" horiz-adv-x="440" d="M94 1303v235h252v-229l-168 -183h-76l95 177h-103z" />
<glyph unicode="&#x201a;" horiz-adv-x="440" d="M94 0v236h252v-230l-168 -182h-76l95 176h-103z" />
<glyph unicode="&#x201c;" horiz-adv-x="790" d="M94 1155v229l168 183h76l-94 -176h102v-236h-252zM446 1155v229l166 183h78l-94 -176h100v-236h-250z" />
<glyph unicode="&#x201d;" horiz-adv-x="790" d="M94 1303v235h252v-229l-168 -183h-76l95 177h-103zM446 1303v235h250v-229l-166 -183h-77l94 177h-101z" />
<glyph unicode="&#x201e;" horiz-adv-x="792" d="M94 0v236h252v-230l-168 -182h-76l95 176h-103zM446 0v236h250v-230l-166 -182h-77l94 176h-101z" />
<glyph unicode="&#x2022;" horiz-adv-x="624" d="M94 782q0 90 63.5 153.5t153.5 63.5q91 0 155 -64t64 -153q0 -91 -64 -155t-155 -64t-154 64t-63 155z" />
<glyph unicode="&#x2026;" horiz-adv-x="1271" d="M94 0v236h236v-236h-236zM518 0v236h236v-236h-236zM942 0v236h236v-236h-236z" />
<glyph unicode="&#x202f;" horiz-adv-x="398" />
<glyph unicode="&#x2039;" horiz-adv-x="669" d="M45 768v16l338 435h223l-323 -445l323 -442h-223z" />
<glyph unicode="&#x203a;" horiz-adv-x="669" d="M63 332l324 442l-324 445h224l338 -435v-16l-338 -436h-224z" />
<glyph unicode="&#x205f;" horiz-adv-x="498" />
<glyph unicode="&#x20ac;" horiz-adv-x="1263" d="M33 584v110h110v146h-110v110h110v350q0 136 51.5 190t186.5 54h512q136 0 186.5 -53.5t50.5 -190.5v-176l-276 -20v190q0 14 -3 22.5t-9.5 12t-11.5 4t-15 0.5h-352q-11 0 -16.5 -0.5t-12.5 -4t-9.5 -12t-2.5 -22.5v-344h303v-110h-303v-146h303v-110h-303v-340 q0 -14 2.5 -22.5t9.5 -12t12.5 -4t16.5 -0.5h352q10 0 15 0.5t11.5 4t9.5 12t3 22.5v202l276 -20v-186q0 -138 -51 -192t-186 -54h-512q-135 0 -186.5 54t-51.5 192v344h-110z" />
<glyph unicode="&#x2122;" horiz-adv-x="2289" d="M76 1352v186h739v-186h-254v-756h-229v756h-256zM989 596v942h361l233 -833l236 833h358v-942h-221v793l-238 -793h-270l-236 788v-788h-223z" />
<glyph unicode="&#xfb01;" horiz-adv-x="1251" d="M18 973v211h160v157q0 135 51 185.5t187 50.5h233v-195h-178q-10 0 -15 -1t-11.5 -4t-9.5 -12t-3 -24v-157h217v-211h-217v-973h-254v973h-160zM838 0v1184h272v-1184h-272zM838 1395v182h272v-182h-272z" />
<glyph unicode="&#xfb02;" horiz-adv-x="1243" d="M18 973v211h160v157q0 135 51 185.5t187 50.5h233v-195h-178q-10 0 -15 -1t-11.5 -4t-9.5 -12t-3 -24v-157h217v-211h-217v-973h-254v973h-160zM834 0v1577h270v-1577h-270z" />
</font>
</defs>
</svg>
